Torrent Health
Seeds 29 Peers 16

The Gentlemen 2019 English Snugaroo PDVD kat free movie torrent

The Gentlemen 2019

Trusted uploader DOWNLOAD

The Gentlemen 2019

Director: Guy Ritchie

Writers: Guy Ritchie (screenwriter), Guy Ritchie (story)

Actors: Matthew McConaughey, Charlie Hunnam, Michelle Dockery

Story / story:

An expatriate American is trying to sell his highly lucrative marijuana empire in London, firing plots, plots, bribes and extortion in an attempt to steal his property.

General

First and last name:

Format: AVI

Format / Information: Audio video embedding

File size: 938 MiB

Duration: 1 hour 53 min

Global bandwidth: 1154 kbps

Subtitles: (HI)

Video

username: 0

Format: MPEG-4 Visual

Profile format: more specific

Format settings, BVOP: 2

Formatting settings, QPel: No.

Format settings, GMC: no war points

Format settings, matrix: default ()

Codec ID: XVID

Codec ID / Register: XviD

Duration: 1 hour 53 min

Bit rate: 1013 kbps

Width: 720 pixels

Height: 304 pixels

Screen format :: 1

Frame rate: (24000/1001) FPS

Color space: YUV

Sampling of colors: 4: 2: 0

Bit depth: 8 bits

Scan type: progressive

Compression mode: lost

Bits / (Pixel * Frame):

Stream size: 824 MiB (88%)

Writing library: XviD 64

sound

Username: 1

Format: MPEG audio

Format version: version 1

Format profile: layer 3

Codec ID: 55

Codec ID / Register: MP3

Duration: 1 hour 53 min

Bit rate mode: constant

Bit rate: 128 kbps

Channel (s): 2 channels

Sampling frequency: kHz

Compression mode: lost

Stream size: 104 MiB (11%)

Alignment: Aligned with divisors

Embedding, duration: 24 ms (video frame)

Screenshot:

Please sow as long as possible

Or at least 1: 1

Enjoy a peek

User Rating 33 1
Get uTorrent Get uTorrent

No comment

Leave a Reply

Your email address will not be published.